"Starперцы / Старперці / Last Vegas (2013) BDRip | Укр. озвучка" - Детали торрента :: Трекер 0day.kiev.ua
 
 
  Главная | Форум Торренты | Журнал | Анонсы HD | Запросы | Правила | ЧаВо | Администрация Загрузить на трекер  
Навигация
Полезное для тебя!

Детали торрента "Starперцы / Старперці / Last Vegas (2013) BDRip | Укр. озвучка"
Фильмы
Хэш релиза2ada98e2718385cd5c84b64089891db18dc51627
Обложка
ОписаниеИнформация о фильме
Название: Starперцы
Оригинальное название: Last Vegas
Год выхода: 2013
Жанр: комедия, драма
Режисcер: Джон Тёртелтауб
В ролях: Майкл Дуглас, Роберт Де Ниро, Морган Фриман, Кевин Клайн, Мэри Стинберген, Джерри Феррара, Романи Малко, Роджер Барт, Джоанна Глисон, Майкл Или

О фильме:
Билли, Пэдди, Арчи и Сэм дружат больше полувека. И когда убежденный холостяк Билли наконец-то делает предложение своей юной подружке, великолепная четверка отправляется в Лас-Вегас, чтобы скинуть с себя груз прожитого и зажечь как в последний раз. Великовозрастные гуляки и не подозревают, как за десятилетия эволюционировал Город Грехов…

IMDB  

Выпущено: США, CBS Films, Gidden Media, Good Universe
Продолжительность: 01:44:59

Файл
Качество: BDRip
Видео: XviD, NTSC 23.976, 720x304, 1768 кбит/с
Звук #1: Украинский (Профессиональный (многоголосый)), AC3, 2ch (L,R), 192 кбит/с |Line|
MediaInfo
General
Complete name                    : C:\Users\bulletfan\Desktop\Last Vegas (2013) BDRip [UKR] [Hurtom].avi
Format                           : AVI
Format/Info                      : Audio Video Interleave
File size                        : 1.44 GiB
Duration                         : 1h 44mn
Overall bit rate                 : 1 970 Kbps
Writing application              : VirtualDubModUkr 1.5.10.2 (build 2542/release)
Writing library                  : VirtualDubMod build 2542/release

Video
ID                               : 0
Format                           : MPEG-4 Visual
Format profile                   : Advanced Simple@L5
Format settings, BVOP            : 1
Format settings, QPel            : No
Format settings, GMC             : No warppoints
Format settings, Matrix          : Default (H.263)
Codec ID                         : XVID
Codec ID/Hint                    : XviD
Duration                         : 1h 44mn
Bit rate                         : 1 768 Kbps
Width                            : 720 pixels
Height                           : 304 pixels
Display aspect ratio             : 2.35:1
Frame rate                       : 23.976 fps
Color space                      : YUV
Chroma subsampling               : 4:2:0
Bit depth                        : 8 bits
Scan type                        : Progressive
Compression mode                 : Lossy
Bits/(Pixel*Frame)               : 0.337
Stream size                      : 1.30 GiB (90%)
Writing library                  : XviD 1.2.1 (UTC 2008-12-04)

Audio
ID                               : 1
Format                           : AC-3
Format/Info                      : Audio Coding 3
Mode extension                   : CM (complete main)
Codec ID                         : 2000
Duration                         : 1h 44mn
Bit rate mode                    : Constant
Bit rate                         : 192 Kbps
Channel(s)                       : 2 channels
Channel positions                : Front: L R
Sampling rate                    : 48.0 KHz
Bit depth                        : 16 bits
Compression mode                 : Lossy
Stream size                      : 144 MiB (10%)
Alignment                        : Split accross interleaves
Interleave, duration             : 42 ms (1.00 video frame)
Interleave, preload duration     : 500 ms


Релиз группы:
Социальные сети
Скриншоты
Похожие раздачи
ТипНазваниеРазмерДобавленСидЛич
Starперцы / Last Vegas (2013) BDRip (BaibaKo)2,05 ГБ2014-01-16500
Starперцы / Last Vegas (2013) BDRip2,05 ГБ2014-01-11670
РаздающийПоследний раз был здесь 6:15:23 назад
Размер1,44 ГБ (1 551 220 736 байт)
Добавлен2014-01-12 00:50:38
Скачан2018 раз
Статус раздачиОбычная (учитывается весь рейтинг)